<?xml version="1.0" standalone="no"?>
<!DOCTYPE svg PUBLIC "-//W3C//DTD SVG 1.1//EN" "http://www.w3.org/Graphics/SVG/1.1/DTD/svg11.dtd" >
<svg xmlns="http://www.w3.org/2000/svg">
<metadata>Generated by IcoMoon</metadata>
<defs>
<font id="icomoon" horiz-adv-x="1024">
<font-face units-per-em="1024" ascent="960" descent="-64" />
<missing-glyph horiz-adv-x="1024" />
<glyph unicode="&#x20;" horiz-adv-x="512" d="" />
<glyph unicode="&#xe600;" glyph-name="cb" horiz-adv-x="1820" d="M1382.4 612.978c-11.378 45.511-51.2 56.889-108.089 39.822-28.444-5.689-45.511-11.378-51.2-17.067l34.133-130.844 39.822 11.378c68.267 17.067 96.711 56.889 85.333 96.711zM1814.756 243.2l-164.978 637.156c-17.067 56.889-73.956 91.022-130.844 73.956l-631.467-170.667c-5.689 0-11.378-5.689-17.067-5.689l-28.444 102.4c-17.067 56.889-73.956 91.022-130.844 73.956l-631.467-170.667c-56.889-17.067-91.022-73.956-73.956-130.844l170.667-637.156c17.067-56.889 73.956-91.022 130.844-73.956l631.467 170.667c5.689 0 11.378 5.689 17.067 5.689l28.444-102.4c17.067-56.889 73.956-91.022 130.844-73.956l631.467 170.667c51.2 11.378 85.333 73.956 68.267 130.844zM625.778 180.622c-193.422-51.2-329.956 39.822-369.778 204.8-51.2 193.422 56.889 341.333 227.556 386.844 68.267 17.067 119.467 17.067 147.911 11.378v-108.089c-28.444 5.689-68.267 5.689-113.778-5.689-102.4-28.444-164.978-113.778-130.844-238.933 28.444-113.778 113.778-170.667 227.556-136.533 39.822 11.378 79.644 28.444 102.4 45.511l45.511-96.711c-17.067-17.067-68.267-45.511-136.533-62.578zM1570.133 271.644c-34.133-45.511-96.711-79.644-210.489-113.778-62.578-17.067-108.089-22.756-142.222-28.444l-147.911 557.511c34.133 17.067 96.711 39.822 159.289 56.889 79.644 22.756 125.156 28.444 176.356 11.378 45.511-11.378 85.333-39.822 96.711-91.022s-5.689-108.089-62.578-147.911v0c68.267 0 130.844-34.133 147.911-108.089 22.756-51.2 5.689-102.4-17.067-136.533zM1325.511 425.244l-45.511-11.378 39.822-159.289c11.378 0 28.444 5.689 51.2 11.378 56.889 17.067 102.4 51.2 85.333 113.778-11.378 51.2-68.267 62.578-130.844 45.511z" />
<glyph unicode="&#xe601;" glyph-name="togglescreen" horiz-adv-x="1243" d="M1028.827 947.127h-801.207c-110.665 0-200.338-89.673-200.338-200.119v-550.327c0-110.592 89.673-200.119 200.338-200.119h801.28c110.592 0 200.265 89.6 200.265 200.119v550.327c0 110.519-89.746 200.119-200.338 200.119zM1097.143 155.429h-950.857v658.286h950.857v-658.286z" />
<glyph unicode="&#xe602;" glyph-name="fullscreen" horiz-adv-x="1205" d="M0 598.588h120.471v180.706h180.706v120.471h-301.176v-301.176zM1084.235 604.612h120.471v295.153h-301.176v-120.471h180.706v-174.682zM1084.235 237.176v-180.706h-180.706v-120.471h301.176v301.176h-120.471zM120.471 237.176h-120.471v-301.176h301.176v120.471h-180.706v180.706z" />
<glyph unicode="&#xe603;" glyph-name="hd" horiz-adv-x="1877" d="M708.267 524.8h-409.6l59.733 435.2h-196.267l-153.6-1006.933h204.8l59.733 418.133h409.6l-59.733-418.133h204.8l145.067 1006.933h-204.8l-59.733-435.2zM1792 840.533c-68.267 76.8-162.133 119.467-281.6 119.467h-349.867l-153.6-1006.933h349.867c128 0 230.4 34.133 324.267 110.933s145.067 179.2 162.133 307.2l25.6 170.667c17.067 119.467-8.533 221.867-76.8 298.667zM1664 541.867l-25.6-170.667c-8.533-76.8-42.667-136.533-93.867-187.733s-102.4-76.8-170.667-76.8h-153.6l102.4 699.733h153.6c68.267 0 119.467-25.6 153.6-68.267 42.667-51.2 51.2-119.467 34.133-196.267z" />
<glyph unicode="&#xe604;" glyph-name="pause" horiz-adv-x="751" d="M0-64h273.067v1024h-273.067v-1024zM477.867 960v-1024h273.067v1024h-273.067z" />
<glyph unicode="&#xe605;" glyph-name="pause-big" d="M512 960c-282.867 0-512-229.133-512-512s229.133-512 512-512c282.867 0 512 229.133 512 512s-229.133 512-512 512zM512 81.996c-201.758 0-364.99 163.232-364.99 364.99s163.232 364.99 364.99 364.99c201.758 0 364.99-163.232 364.99-364.99 1.014-200.745-162.218-364.99-364.99-364.99zM547.485 209.743h152.079v476.515h-152.079v-476.515zM324.436 209.743h152.079v476.515h-152.079v-476.515z" />
<glyph unicode="&#xe606;" glyph-name="play" horiz-adv-x="956" d="M0 960v-1024l955.733 512z" />
<glyph unicode="&#xe607;" glyph-name="play-big" d="M378.88 263.68l327.68 189.44-327.68 189.44v-378.88zM512 960c-282.624 0-512-229.376-512-512s229.376-512 512-512 512 229.376 512 512c0 282.624-229.376 512-512 512zM512 32.256c-229.376 0-415.744 186.368-415.744 415.744s186.368 415.744 415.744 415.744c229.376 0 415.744-186.368 415.744-415.744s-186.368-415.744-415.744-415.744z" />
<glyph unicode="&#xe608;" glyph-name="volume1" horiz-adv-x="1152" d="M550.4 902.4l-364.8-256h-185.6v-396.8h185.6l358.4-249.6c0 0 64-51.2 64 0s0 851.2 0 896c0 44.8-57.6 6.4-57.6 6.4zM806.4 723.2c-19.2 19.2-51.2 19.2-70.4 0s-19.2-44.8 0-64c70.4-57.6 96-134.4 96-211.2s-32-153.6-89.6-211.2c-19.2-19.2-19.2-44.8 0-64 6.4-6.4 19.2-12.8 32-12.8s25.6 6.4 32 12.8c76.8 76.8 121.6 172.8 121.6 275.2s-38.4 198.4-121.6 275.2zM940.8 864c-19.2 19.2-51.2 19.2-70.4 0s-19.2-44.8 0-64c102.4-96 153.6-224 153.6-352s-51.2-256-153.6-352v-64c6.4-6.4 19.2-12.8 32-12.8s25.6 6.4 32 12.8c121.6 115.2 185.6 268.8 185.6 416 0 153.6-57.6 300.8-179.2 416z" />
<glyph unicode="&#xe609;" glyph-name="volume2" horiz-adv-x="960" d="M550.4 902.4l-364.8-256h-185.6v-396.8h185.6l358.4-249.6c0 0 64-51.2 64 0s0 851.2 0 896c0 44.8-57.6 6.4-57.6 6.4zM806.4 723.2c-19.2 19.2-51.2 19.2-70.4 0s-19.2-44.8 0-64c70.4-57.6 96-134.4 96-211.2s-32-153.6-89.6-211.2c-19.2-19.2-19.2-44.8 0-64 6.4-6.4 19.2-12.8 32-12.8s25.6 6.4 32 12.8c76.8 76.8 121.6 172.8 121.6 275.2s-38.4 198.4-121.6 275.2z" />
<glyph unicode="&#xe60a;" glyph-name="volume3" horiz-adv-x="640" d="M550.4 902.4l-364.8-256h-185.6v-396.8h185.6l358.4-249.6c0 0 64-51.2 64 0s0 851.2 0 896c0 44.8-57.6 6.4-57.6 6.4z" />
<glyph unicode="&#xe60b;" glyph-name="pause2" horiz-adv-x="768" d="M619.52 960c-128 0-148.48-71.68-148.48-117.76v-788.48c0-46.080 20.48-117.76 148.48-117.76s148.48 71.68 148.48 117.76v788.48c0 46.080-20.48 117.76-148.48 117.76zM711.68 53.76c0-20.48 0-61.44-92.16-61.44s-92.16 46.080-92.16 61.44v788.48c0 20.48 0 61.44 92.16 61.44s92.16-46.080 92.16-61.44v-788.48zM148.48 960c-128 0-148.48-71.68-148.48-117.76v-788.48c0-46.080 20.48-117.76 148.48-117.76s148.48 71.68 148.48 117.76v788.48c0 46.080-20.48 117.76-148.48 117.76zM240.64 53.76c0-20.48 0-61.44-92.16-61.44s-92.16 46.080-92.16 61.44v788.48c0 20.48 0 61.44 92.16 61.44s92.16-46.080 92.16-61.44v-788.48z" />
<glyph unicode="&#xe60c;" glyph-name="pause3" d="M512 959.913c-282.257 0-511.913-229.656-511.913-511.913 0-282.267 229.656-511.913 511.913-511.913s511.913 229.646 511.913 511.913c0 282.257-229.656 511.913-511.913 511.913zM512-6.154c-250.426 0-454.163 203.728-454.163 454.154s203.737 454.154 454.163 454.154c250.416 0 454.163-203.728 454.163-454.154s-203.747-454.154-454.163-454.154zM667.097 641.633h-49.171c-35.019 0-63.546-28.498-63.546-63.546v-260.202c0-35.029 28.498-63.536 63.546-63.536h49.113c35.019 0 63.546 28.488 63.585 63.536v260.202c0 35.048-28.498 63.546-63.527 63.546zM687.935 317.884c0-11.515-9.361-20.886-20.866-20.886h-49.133c-11.515 0-20.886 9.371-20.886 20.886v260.202c0 11.515 9.371 20.886 20.886 20.886h49.162c11.525 0 20.866-9.371 20.866-20.886l-0.029-260.202zM415.734 641.633h-49.162c-35.038 0-63.546-28.498-63.546-63.546v-260.202c0-35.029 28.498-63.536 63.546-63.536h49.162c35.048 0 63.536 28.508 63.536 63.536v260.202c0 35.048-28.488 63.546-63.536 63.546zM436.62 317.884c0-11.515-9.371-20.886-20.886-20.886h-49.162c-11.515 0-20.876 9.371-20.876 20.886v260.202c0 11.515 9.361 20.886 20.876 20.886h49.162c11.515 0 20.886-9.371 20.886-20.886v-260.202z" />
<glyph unicode="&#xe60d;" glyph-name="play2" d="M512 950.689c-277.182 0-502.689-225.508-502.689-502.689 0-277.163 225.508-502.689 502.689-502.689s502.689 225.517 502.689 502.689c0 277.182-225.508 502.689-502.689 502.689zM512 4.94c-244.309 0-443.070 198.732-443.070 443.060 0 244.319 198.76 443.079 443.070 443.079 244.328 0 443.079-198.77 443.079-443.079 0-244.328-198.751-443.060-443.079-443.060zM737.726 473.818l-314.643 181.656c-9.216 5.329-20.584 5.329-29.8 0-9.216-5.319-14.905-15.161-14.905-25.818v-363.302c0-10.667 5.689-20.489 14.905-25.818 4.608-2.664 9.747-4.001 14.895-4.001s10.287 1.337 14.905 4.001l314.643 181.656c9.216 5.319 14.886 15.151 14.886 25.809 0 10.667-5.679 20.499-14.886 25.818zM437.988 317.971v260.068l225.233-130.039-225.233-130.029z" />
<glyph unicode="&#xe60e;" glyph-name="play22" d="M930.355 520.038l-746.394 428.339c-27.136 15.565-60.928 16.026-88.422 1.075-27.546-14.899-44.544-42.854-44.544-73.114v-856.73c0-30.31 17.050-58.214 44.544-73.114 13.414-7.322 28.314-10.906 43.264-10.906 15.667 0 31.283 3.942 45.158 11.93l746.342 428.39c26.47 15.155 42.65 42.496 42.65 71.987s-16.128 56.934-42.598 72.141zM739.686 397.466l-497.562-299.725c-9.267-5.581-19.661-8.346-30.106-8.346-9.933 0-19.866 2.56-28.826 7.578-18.33 10.445-29.696 30.003-29.696 51.149v599.501c0 21.197 11.366 40.755 29.696 51.149 18.33 10.445 40.858 10.138 58.982-0.768l497.562-299.725c17.664-10.598 28.416-29.747 28.416-50.381s-10.803-39.782-28.467-50.432z" />
<glyph unicode="&#xe60f;" glyph-name="volume12" d="M658.286 960.098c-12.093 0-23.113-4.827-31.061-12.532l-294.229-286.184h-245.126c-48.469 0-87.723-38.229-87.723-85.382v-256c0-47.153 39.302-85.382 87.723-85.382h245.126l294.229-286.184c7.948-7.704 18.968-12.532 31.061-12.532 24.186 0 43.886 19.115 43.886 42.667v938.862c0 23.552-19.7 42.667-43.886 42.667zM614.4 81.603l-232.204 225.865c-7.948 7.704-18.92 12.532-31.013 12.532h-263.314v256h263.266c12.142 0 23.113 4.827 31.013 12.581l232.253 225.865v-732.843zM970.362 608.573c-12.678 30.525-25.502 53.394-34.475 66.609-9.46 13.946-29.062 17.944-43.691 8.972s-18.968-27.648-9.411-41.643c6.875-10.142 17.749-29.598 28.77-56.125 18.432-44.227 29.452-91.136 29.452-138.386s-11.020-94.159-29.452-138.435c-11.020-26.526-21.894-45.934-28.77-56.076-9.509-13.946-5.218-32.573 9.411-41.643s34.231-5.022 43.691 8.972c8.972 13.214 21.797 36.084 34.475 66.609 21.163 50.81 33.841 104.984 33.841 160.573s-12.678 109.763-33.841 160.573z" />
<glyph unicode="&#xe610;" glyph-name="volume22" d="M531.692 861.617c-9.807 0-18.668-3.899-25.088-10.122l-237.647-231.148h-197.986c-39.148 0-70.853-30.878-70.853-68.962v-206.769c0-38.085 31.744-68.962 70.853-68.962h197.986l237.647-231.148c6.42-6.223 15.281-10.122 25.088-10.122 19.574 0 35.446 15.439 35.446 34.462v758.311c0 19.023-15.872 34.462-35.446 34.462zM496.246 152.064l-187.589 182.43c-6.42 6.223-15.281 10.122-25.049 10.122h-212.638v206.769h212.638c9.807 0 18.668 3.899 25.049 10.161l187.589 182.43v-591.911zM755.909 631.493c-7.641 11.264-23.473 14.494-35.289 7.247s-15.321-22.331-7.601-33.634c5.553-8.192 14.336-23.906 23.237-45.332 14.887-35.722 23.788-73.61 23.788-111.774s-8.901-76.052-23.788-111.813c-8.901-21.425-17.684-37.1-23.237-45.292-7.68-11.264-4.214-26.309 7.601-33.634s27.648-4.057 35.289 7.247c7.247 10.673 17.605 29.145 27.845 53.799 17.093 41.039 27.333 84.795 27.333 129.694s-10.24 88.655-27.333 129.694c-10.201 24.655-20.598 43.126-27.845 53.799zM943.458 663.906c-9.925 23.867-20.519 45.568-31.232 64.709-6.459 11.618-11.579 19.889-14.69 24.458-7.601 11.303-23.434 14.572-35.289 7.326s-15.321-22.292-7.68-33.634c2.402-3.505 6.774-10.634 12.564-20.992 9.807-17.526 19.574-37.573 28.79-59.746 26.151-63.173 41.866-130.206 41.866-198.026s-15.675-134.932-41.866-198.065c-9.216-22.134-18.983-42.142-28.79-59.746-5.79-10.358-10.201-17.447-12.564-20.953-7.601-11.303-4.135-26.388 7.68-33.634 11.894-7.286 27.687-4.017 35.289 7.326 3.111 4.569 8.231 12.839 14.69 24.458 10.673 19.102 21.307 40.763 31.232 64.709 28.396 68.45 45.371 141.391 45.371 215.906s-16.975 147.456-45.371 215.906z" />
<glyph unicode="&#xe611;" glyph-name="volumefull" d="M460.8 806.468c-8.499 0-16.179-3.379-21.743-8.772l-205.961-200.329h-171.588c-33.929 0-61.406-26.761-61.406-59.767v-179.2c0-33.007 27.511-59.767 61.406-59.767h171.588l205.961-200.329c5.564-5.393 13.244-8.772 21.743-8.772 16.964 0 30.72 13.38 30.72 29.867v657.203c0 16.486-13.756 29.867-30.72 29.867zM430.080 191.522l-162.577 158.106c-5.564 5.393-13.244 8.772-21.709 8.772h-184.286v179.2h184.286c8.499 0 16.179 3.379 21.709 8.806l162.577 158.106v-512.99zM655.121 607.027c-6.622 9.762-20.343 12.561-30.583 6.281s-13.278-19.354-6.588-29.15c4.813-7.1 12.425-20.719 20.139-39.287 12.902-30.959 20.617-63.795 20.617-96.87s-7.714-65.911-20.617-96.905c-7.714-18.569-15.326-32.154-20.139-39.253-6.656-9.762-3.652-22.801 6.588-29.15s23.962-3.516 30.583 6.281c6.281 9.25 15.258 25.259 24.132 46.626 14.814 35.567 23.689 73.489 23.689 112.401s-8.875 76.834-23.689 112.401c-8.841 21.367-17.852 37.376-24.132 46.626zM790.596 691.2c-5.598 10.069-10.035 17.237-12.732 21.197-6.588 9.796-20.309 12.629-30.583 6.349s-13.278-19.319-6.656-29.15c2.082-3.038 5.871-9.216 10.889-18.193 8.499-15.189 16.964-32.563 24.951-51.78 22.665-54.75 36.284-112.845 36.284-171.622s-13.585-116.941-36.284-171.657c-7.987-19.183-16.452-36.523-24.951-51.78-5.018-8.977-8.841-15.121-10.889-18.159-6.588-9.796-3.584-22.869 6.656-29.15 10.308-6.315 23.996-3.482 30.583 6.349 2.697 3.959 7.134 11.127 12.732 21.197 9.25 16.555 18.466 35.328 27.068 56.081 24.61 59.324 39.322 122.539 39.322 187.119s-14.746 127.795-39.322 187.119c-8.602 20.719-17.783 39.526-27.068 56.081zM961.741 708.267c-13.722 26.044-28.433 48.606-43.213 67.686-9.045 11.639-16.213 19.661-20.617 24.030-8.499 8.363-22.494 8.602-31.3 0.512-8.806-8.055-9.079-21.436-0.58-29.798 3.106-3.038 9.045-9.66 16.828-19.763 13.346-17.203 26.726-37.717 39.253-61.577 35.977-68.369 57.617-148.924 57.617-241.357s-21.641-173.022-57.617-241.357c-12.527-23.825-25.941-44.373-39.253-61.577-7.817-10.103-13.722-16.725-16.828-19.763-8.499-8.397-8.226-21.743 0.58-29.833 8.806-8.055 22.801-7.817 31.3 0.546 4.437 4.369 11.605 12.39 20.617 24.030 14.78 19.115 29.457 41.677 43.213 67.686 38.946 74.001 62.293 161.007 62.293 260.267s-23.381 186.266-62.293 260.267z" />
<glyph unicode="&#xe612;" glyph-name="volumemute" d="M804.571 960.098c-12.093 0-23.113-4.827-31.061-12.532l-294.229-286.184h-245.126c-48.469 0-87.723-38.229-87.723-85.382v-256c0-47.153 39.302-85.382 87.723-85.382h245.126l294.229-286.184c7.948-7.704 18.968-12.532 31.061-12.532 24.186 0 43.886 19.115 43.886 42.667v938.862c0 23.552-19.7 42.667-43.886 42.667zM760.686 81.603l-232.204 225.865c-7.948 7.704-18.92 12.532-31.013 12.532h-263.314v256h263.266c12.142 0 23.113 4.827 31.013 12.581l232.253 225.865v-732.843z" />
<glyph unicode="&#xe613;" glyph-name="setting" d="M1020.781 504.851c-1.619 14.394-18.402 25.211-32.915 25.211-46.92 0-88.556 27.55-106.018 70.158-17.839 43.64-6.336 94.534 28.632 126.611 11.007 10.062 12.344 26.906 3.113 38.607-24.015 30.495-51.31 58.042-81.112 81.915-11.67 9.365-28.792 8.062-38.912-3.143-30.518-33.799-85.337-46.36-127.697-28.686-44.082 18.543-71.88 63.212-69.159 111.161 0.895 15.061-10.112 28.156-25.127 29.905-38.245 4.423-76.825 4.561-115.185 0.305-14.844-1.638-25.851-14.425-25.352-29.295 1.669-47.477-26.464-91.364-70.108-109.241-41.853-17.096-96.287-4.641-126.744 28.857-10.066 11.034-26.91 12.39-38.637 3.25-30.686-24.076-58.594-51.645-82.83-81.889-9.453-11.758-8.062-28.8 3.056-38.916 35.635-32.271 47.141-83.607 28.628-127.75-17.675-42.085-61.376-69.209-111.405-69.209-16.234 0.522-27.798-10.375-29.573-25.135-4.503-38.466-4.557-77.66-0.221-116.438 1.608-14.455 18.902-25.177 33.574-25.177 44.585 1.139 87.39-26.464 105.347-70.162 17.899-43.64 6.393-94.504-28.628-126.607-10.954-10.062-12.344-26.88-3.113-38.58 23.79-30.301 51.089-57.874 80.997-81.946 11.731-9.453 28.8-8.119 38.969 3.086 30.633 33.883 85.447 46.421 127.639 28.712 44.192-18.486 71.99-63.151 69.27-111.127-0.888-15.069 10.173-28.187 25.127-29.909 19.564-2.282 39.247-3.421 58.983-3.421 18.734 0 37.472 1.029 56.205 3.113 14.848 1.638 25.847 14.425 25.348 29.322-1.718 47.45 26.464 91.338 70.051 109.184 42.135 17.21 96.34 4.614 126.801-28.849 10.123-11.011 26.849-12.341 38.641-3.231 30.629 24.018 58.48 51.565 82.83 81.893 9.449 11.731 8.115 28.8-3.059 38.912-35.635 32.271-47.199 83.615-28.686 127.727 17.404 41.525 59.482 69.407 104.741 69.407l6.332-0.164c14.68-1.193 28.187 10.116 29.966 25.1 4.511 38.5 4.564 77.66 0.229 116.438zM512.81 276.136c-94.176 0-170.78 76.604-170.78 170.78 0 94.172 76.604 170.78 170.78 170.78 94.172 0 170.777-76.608 170.777-170.78 0-94.176-76.604-170.78-170.777-170.78z" />
<glyph unicode="&#xe900;" glyph-name="cc" horiz-adv-x="1664" d="M0 960v-1024h1664v1024h-1664zM780.8 224c-64-57.6-147.2-96-236.8-96-192 0-352 160-352 352s160 352 352 352c89.6 0 172.8-32 236.8-96 19.2-19.2 19.2-51.2 0-70.4s-51.2-19.2-70.4 0c-44.8 44.8-108.8 64-172.8 64-140.8 0-249.6-115.2-249.6-249.6 0-140.8 115.2-249.6 249.6-249.6 64 0 121.6 25.6 172.8 64 19.2 19.2 51.2 19.2 70.4 0 25.6-19.2 19.2-51.2 0-70.4zM1452.8 224c-64-57.6-147.2-96-236.8-96-192 0-352 160-352 352s160 352 352 352c89.6 0 172.8-32 236.8-96 19.2-19.2 19.2-51.2 0-70.4s-51.2-19.2-70.4 0c-44.8 44.8-108.8 64-172.8 64-140.8 0-249.6-115.2-249.6-249.6 0-140.8 115.2-249.6 249.6-249.6 64 0 121.6 25.6 172.8 64 19.2 19.2 51.2 19.2 70.4 0 25.6-19.2 25.6-51.2 0-70.4z" />
<glyph unicode="&#xe901;" glyph-name="down-arrow" d="M955.485 727.273l-443.485-429.242-443.485 429.242-68.608-62.743 512.093-495.802 512.093 495.802z" />
<glyph unicode="&#xe902;" glyph-name="facebook" d="M0 960v-1024h1024v1024h-1024zM631.599 448.047h-76.777v-278.551h-115.084v278.528h-57.507v96h57.507v57.647c0 78.289 32.465 124.858 124.695 124.858h76.8v-96h-48.012c-35.91 0-38.307-13.428-38.307-38.447l-0.116-48.035h86.947l-10.147-96z" />
<glyph unicode="&#xe903;" glyph-name="flag" d="M42.667 956.644c-42.667 0-42.667 0-42.667-42.496v-935.652c0-42.496 0-42.496 42.667-42.496s42.667 0 42.667 42.496v935.595c0 42.553 0 42.553-42.667 42.553zM1024 935.367c-341.333 85.049-597.333-85.049-853.333 0v-574.123c256-85.049 512 85.049 853.333 0l-170.667 297.7 170.667 276.423z" />
<glyph unicode="&#xe904;" glyph-name="gplus" d="M534.551 377.158h-9.681c-2.001 0-5.725-0.186-11.357-0.396-5.609-0.256-12.335-0.815-20.201-1.652-7.843-0.861-16.221-2.071-25.228-3.514-8.937-1.513-17.501-3.444-25.693-5.981-4.585-1.466-10.519-3.77-17.943-6.865-7.517-3.049-14.895-7.54-22.249-13.335-7.377-5.795-13.731-13.219-19.014-22.109-5.423-8.913-8.052-19.689-8.052-32.326 0-13.103 3.119-24.948 9.425-35.631 6.307-10.636 15.546-20.015 27.578-28.23 11.916-8.145 26.415-14.336 43.404-18.502 16.896-4.236 35.793-6.307 56.623-6.307 37.725 0 66.048 7.284 84.945 21.9 18.921 14.592 28.463 33.21 28.463 55.808 0 9.053-1.489 17.292-4.538 24.855-3.095 7.447-7.633 14.708-13.824 21.737-6.144 7.005-14.871 14.383-26.089 22.225-11.217 7.866-23.948 16.733-38.284 26.74-2.979 1.024-5.795 1.583-8.285 1.583zM558.173 654.406c-8.099 13.405-18.083 24.669-29.999 33.815-12.125 9.239-25.972 13.777-41.844 13.777-10.193 0-20.294-2.304-30.208-6.842-9.914-4.561-18.176-10.356-24.553-17.292-6.749-7.703-11.217-16.128-13.638-25.274-2.327-9.216-3.514-18.641-3.514-28.276 0-12.125 1.932-25.693 5.679-40.681 3.817-15.034 9.751-29.021 17.873-42.193 8.145-13.103 18.269-24.18 30.255-33.071 12.102-8.96 26.415-13.382 43.148-13.382 9.844 0 19.433 1.815 28.649 5.585 9.263 3.7 16.966 8.704 22.947 14.848 8.867 8.681 14.313 17.967 16.221 27.927 1.955 9.891 2.909 18.176 2.909 24.809 0 13.103-2.048 27.462-5.958 42.985-3.956 15.476-9.961 29.905-17.967 43.264zM0 960v-1024h1024v1024h-1024zM611.863 686.383c6.54-5.423 12.73-12.172 18.641-20.271 5.865-8.052 10.915-17.431 15.034-28.044 4.096-10.636 6.191-22.784 6.191-36.422 0-13.103-1.908-24.762-5.865-34.909-3.817-10.193-8.867-19.363-14.964-27.555-6.097-8.169-13.219-15.476-21.225-21.9l-24.646-18.897c-5.097-5.027-10.054-10.193-15.034-15.686-4.864-5.353-7.354-12.265-7.354-20.573 0-8.169 2.909-14.732 8.634-19.549 5.865-4.887 11.171-8.751 15.919-11.729l28.463-20.62c7.82-6.726 15.174-13.545 22.272-20.41 7.005-6.865 13.359-14.313 18.944-22.272 5.492-8.052 9.961-16.873 13.056-26.461 3.142-9.588 4.631-20.666 4.631-33.187 0-17.455-4.236-34.444-12.823-50.921-8.541-16.5-21.225-31.325-38.144-44.428-16.826-13.126-37.725-23.622-62.58-31.488-24.995-7.889-53.69-11.823-86.295-11.823-28.672 0-53.574 2.909-74.636 8.797-21.132 5.865-38.772 13.661-52.852 23.436-14.080 9.728-24.599 20.806-31.488 33.327-6.865 12.497-10.24 25.6-10.24 39.354 0 13.219 4.236 28.183 12.823 44.963 8.564 16.756 24.25 31.511 47.081 44.218 12.102 6.726 25.041 12.172 38.865 16.5 13.777 4.236 27.369 7.517 40.913 9.914 13.545 2.374 26.368 4.049 38.516 5.073 12.102 0.977 22.598 1.745 31.255 2.257-5.376 6.679-10.449 13.777-15.081 21.155-4.538 7.331-6.842 16.896-6.842 28.625 0 6.26 0.768 11.404 2.304 15.569 1.513 4.236 3.188 8.425 5.143 12.637-3.933-0.489-8.006-0.861-12.265-1.094-4.329-0.256-8.564-0.419-12.637-0.419-21.085 0-39.657 3.281-55.808 9.984-16.081 6.586-29.905 15.29-41.193 25.996-11.241 10.752-19.735 23.040-25.321 36.934-5.702 13.847-8.495 27.904-8.495 42.17 0 16.966 4.166 34.071 12.218 51.409 8.192 17.408 20.527 32.908 37.097 46.662 22.761 17.455 46.383 28.463 71.005 33.071 24.553 4.561 47.476 6.912 68.794 6.912h161.373l-50.641-26.927h-49.222l16.477-13.382z" />
<glyph unicode="&#xe905;" glyph-name="info" d="M460.8 192h102.4v307.2h-102.4v-307.2zM512 960c-281.6 0-512-230.4-512-512s230.4-512 512-512 512 230.4 512 512-230.4 512-512 512zM512 38.4c-225.28 0-409.6 184.32-409.6 409.6s184.32 409.6 409.6 409.6c225.28 0 409.6-184.32 409.6-409.6s-184.32-409.6-409.6-409.6zM460.8 601.6h102.4v102.4h-102.4v-102.4z" />
<glyph unicode="&#xe906;" glyph-name="left-arrow" d="M800 891.456l-64.64 68.672-511.36-512.128 511.36-512.064 64.64 68.608-442.752 443.456z" />
<glyph unicode="&#xe907;" glyph-name="plus" d="M1024 504.889h-455.111v455.111h-113.778v-455.111h-455.111v-113.778h455.111v-455.111h113.778v455.111h455.111z" />
<glyph unicode="&#xe908;" glyph-name="plusrounded" d="M563.2 704h-102.4v-204.8h-204.8v-102.4h204.8v-204.8h102.4v204.8h204.8v102.4h-204.8v204.8zM512 960c-281.6 0-512-230.4-512-512s230.4-512 512-512 512 230.4 512 512-230.4 512-512 512zM512 38.4c-225.28 0-409.6 184.32-409.6 409.6s184.32 409.6 409.6 409.6c225.28 0 409.6-184.32 409.6-409.6s-184.32-409.6-409.6-409.6z" />
<glyph unicode="&#xe909;" glyph-name="radio-off" d="M512 960c-282.764 0-512-229.236-512-512s229.236-512 512-512 512 229.236 512 512-229.236 512-512 512zM512-17.455c-257.071 0-465.455 208.431-465.455 465.455s208.384 465.455 465.455 465.455c257.071 0 465.455-208.431 465.455-465.455s-208.384-465.455-465.455-465.455z" />
<glyph unicode="&#xe90a;" glyph-name="radio-on" d="M512 960c-282.764 0-512-229.236-512-512s229.236-512 512-512 512 229.236 512 512-229.236 512-512 512zM512-17.455c-257.071 0-465.455 208.431-465.455 465.455s208.384 465.455 465.455 465.455c257.071 0 465.455-208.431 465.455-465.455s-208.384-465.455-465.455-465.455zM512 758.319c-171.38 0-310.319-138.938-310.319-310.319s138.938-310.319 310.319-310.319c171.38 0 310.272 138.938 310.272 310.319s-138.892 310.319-310.272 310.319z" />
<glyph unicode="&#xe90b;" glyph-name="right-arrow" d="M288.64 960.128l-64.64-68.672 442.752-443.456-442.752-443.456 64.64-68.608 511.36 512.064z" />
<glyph unicode="&#xe90c;" glyph-name="search" d="M1012.687-2.121l-301.836 293.693c67.438 70.851 109.47 165.742 109.47 270.238-0.049 219.234-183.735 398.19-410.185 398.19-226.402 0-410.136-178.956-410.136-398.19 0-219.185 183.735-398.19 410.136-398.19 92.16 0 176.908 29.452 245.565 79.287l305.006-296.082c7.412-7.217 16.725-10.825 25.99-10.825s19.212 3.608 25.941 10.825c14.336 13.8 14.336 36.62 0.049 51.054zM410.136 235.691c-185.588 0-335.921 146.53-335.921 326.12s150.333 326.12 335.921 326.12c185.003 0 335.97-145.944 335.97-326.12s-150.382-326.12-335.97-326.12z" />
<glyph unicode="&#xe90d;" glyph-name="share" d="M819.098 236.134c-38.912 0-73.677-15.309-100.198-39.475l-365.107 213.299c2.662 11.776 4.659 23.706 4.659 35.994s-2.048 24.166-4.659 35.994l361.011 211.251c27.494-25.6 63.949-41.626 104.294-41.626 85.094 0.051 153.702 68.762 153.702 154.214 0 85.299-68.608 154.214-153.702 154.214-84.89 0-153.549-68.915-153.549-154.163 0-12.442 2.099-24.166 4.659-35.994l-360.96-211.405c-27.597 25.702-63.949 41.677-104.397 41.677-85.094 0-153.651-68.864-153.651-154.163s68.557-154.214 153.651-154.214c40.397 0 76.8 16.026 104.346 41.626l364.493-213.709c-2.509-10.906-4.096-22.272-4.096-33.536 0-82.739 67.226-150.118 149.504-150.118 82.33 0 149.606 67.277 149.606 150.118s-67.226 150.016-149.606 150.016z" />
<glyph unicode="&#xe90e;" glyph-name="thumbdown" d="M215.848 931.597c-74.267 0-182.003-461.069-182.003-534.312 0-73.459 229.214-72.273 236.382-91.352s-192.243-195.422-75.938-338.243c27.271-33.415 119.592 159.96 250.718 247.539 72.327 48.29 225.549 146.27 240.694 207.872 0 0 30.343 103.424 30.343 193.482 0 90.004-30.343 174.296-30.343 174.296-30.343 65.698-266.941 140.719-469.854 140.719zM958.518 871.559h-227.382c0 0 45.487-75.075 45.487-255.030 0-150.043-45.487-270.12-45.487-270.12h227.382c0 0 45.487 90.004 45.487 285.049 0 120.131-45.487 240.101-45.487 240.101z" />
<glyph unicode="&#xe90f;" glyph-name="thumbup" d="M47.957 554.667c0 0-48.014-95.175-48.014-301.397 0-126.919 48.014-253.838 48.014-253.838h240.014c0 0-48.014 79.36-48.014 269.653 0 158.606 48.014 285.582 48.014 285.582h-240.014zM774.485 597.504c-7.509 20.139 202.923 206.564 80.156 357.547-28.786 35.328-126.236-169.074-264.647-261.689-76.345-51.029-237.966-154.567-254.009-219.762 0 0-32.028-109.284-32.028-204.516 0-95.175 32.028-184.263 32.028-184.263 32.028-69.518 281.714-148.764 495.9-148.764 78.393 0 192.114 487.367 192.114 564.85 0 77.71-241.948 76.345-249.515 96.597z" />
<glyph unicode="&#xe910;" glyph-name="tick" d="M1010.137 750.316c-18.511 19.85-48.522 19.85-67.111 0l-534.843-573.519-250.644 268.839c-18.511 19.85-48.522 19.85-66.954 0-18.511-19.85-18.511-51.988 0-71.838l284.199-304.679c9.216-10.004 21.346-14.966 33.477-14.966s24.261 4.962 33.477 14.887l568.399 609.438c18.511 19.85 18.511 51.988 0 71.838z" />
<glyph unicode="&#xe911;" glyph-name="twitter" d="M0 960v-1024h1024v1024h-1024zM808.099 599.878c0.279-6.54 0.465-13.126 0.465-19.782 0-201.891-153.693-434.711-434.711-434.711-86.272 0-166.609 25.297-234.217 68.655 11.962-1.466 24.111-2.141 36.445-2.141 71.587 0 137.472 24.413 189.743 65.373-66.839 1.233-123.276 45.428-142.732 106.147 9.332-1.792 18.897-2.769 28.742-2.769 13.94 0 27.415 1.885 40.239 5.353-69.888 14.057-122.554 75.776-122.554 149.83 0 0.628 0 1.303 0.023 1.932 20.573-11.45 44.148-18.339 69.213-19.107-41.007 27.392-67.98 74.17-67.98 127.162 0 27.997 7.54 54.249 20.689 76.823 75.357-92.439 187.927-153.274 314.927-159.628-2.607 11.171-3.956 22.831-3.956 34.816 0 84.364 68.399 152.762 152.809 152.762 43.916 0 83.642-18.548 111.5-48.244 34.769 6.842 67.491 19.572 97.024 37.073-11.427-35.677-35.607-65.606-67.188-84.527 30.929 3.677 60.393 11.892 87.761 24.041-20.457-30.65-46.336-57.553-76.241-79.057z" />
<glyph unicode="&#xe912;" glyph-name="upload" d="M384 192h256v384h256l-384 384-384-384h256v-384zM896 255.966v-192.034h-768v192.034h-128v-319.966h1024v320.034h-128z" />
<glyph unicode="&#xe913;" glyph-name="zoom" d="M990.72-8.332l-240.617 242.223c69.632 77.056 112.361 179.223 112.361 292.026 0.023 240.431-192.396 434.083-431.244 434.083s-431.244-193.652-431.244-434.083c0-240.407 192.419-434.083 431.244-434.083 103.028 0 197.306 36.189 271.313 96.465l241.757-243.363c6.633-6.703 15.476-8.937 24.343-8.937 8.82 0 17.687 2.234 22.086 8.913 13.289 13.359 13.289 33.373 0 46.755zM431.22 158.604c-201.239 0-364.893 164.724-364.893 367.29 0 202.589 163.654 367.313 364.893 367.313s364.916-164.724 364.916-367.313c0-202.543-163.654-367.29-364.916-367.29zM470.807 727.273h-57.274v-157.556h-157.533v-57.297h157.556v-157.556h57.274v157.556h157.533v57.297h-157.556v157.556z" />
<glyph unicode="&#xe914;" glyph-name="close" d="M1024 900.655l-59.345 59.345-452.655-452.701-452.655 452.701-59.345-59.345 452.655-452.655-452.655-452.655 59.345-59.345 452.655 452.655 452.655-452.655 59.345 59.345-452.701 452.655z" />
<glyph unicode="&#xe915;" glyph-name="linkedin" d="M0 960v-1024h1024v1024h-1024zM347.764 198.167c0-10.1-7.796-18.246-17.431-18.246h-69.772c-9.635 0-17.431 8.169-17.431 18.246v319.651c0 10.1 7.796 18.269 17.431 18.269h69.772c9.635 0 17.431-8.192 17.431-18.269v-319.651zM347.764 610.537c0-10.1-7.796-18.246-17.431-18.246h-69.772c-9.635 0-17.431 8.169-17.431 18.246v64.954c0 10.1 7.796 18.246 17.431 18.246h69.772c9.635 0 17.431-8.169 17.431-18.246v-64.954zM779.846 198.167c0-10.1-7.796-18.246-17.431-18.246h-69.772c-9.635 0-17.408 8.169-17.408 18.246v134.982c0 44.753-2.257 73.705-6.726 86.831-4.445 13.126-11.729 23.343-21.783 30.627s-22.156 10.938-36.329 10.938c-18.106 0-34.374-5.213-48.78-15.616-14.383-10.403-24.273-24.204-29.58-41.356-5.329-17.175-8.006-48.943-8.006-95.232v-111.174c0-10.1-7.82-18.246-17.431-18.246h-69.772c-9.635 0-17.431 8.169-17.431 18.246v319.651c0 10.1 7.796 18.269 17.431 18.269h62.324c9.635 0 17.431-8.192 17.431-18.269v-24.343c0-10.1 4.724-11.729 11.171-4.282 32.559 37.492 72.262 56.25 119.133 56.25 23.087 0 44.172-4.375 63.302-13.079 19.107-8.727 33.559-19.852 43.38-33.373 9.821-13.545 16.64-28.881 20.48-46.057s5.772-41.751 5.772-73.751v-181.015z" />
<glyph unicode="&#xe916;" glyph-name="photos" d="M851.712 638.157l-39.731 219.443-811.981-134.963 118.989-641.997 80.589 12.902v-55.142h824.422v599.757h-172.288zM199.578 158.106l-26.010-4.659-96.717 517.53 680.602 113.869 27.238-146.688h-585.114v-480.051zM957.030 101.786h-690.483v472.986h690.534v-472.986zM538.010 218.010l210.79 219.443 27.238-10.547 136.346-149.043v254.618h-601.242v-350.925l140.083 88.013 86.784-51.558zM385.536 437.453c0 30.515 27.29 56.371 59.494 56.371s59.494-25.805 59.494-56.371c0-30.515-27.29-56.371-59.494-56.371s-59.494 25.856-59.494 56.371z" />
<glyph unicode="&#xe917;" glyph-name="subscribers" d="M688.282 379.443l-12.39 0.563-7.526-9.83c-41.728-54.272-100.864-85.402-162.15-85.402s-120.474 31.181-162.15 85.402l-7.578 9.882-12.442-0.614c-110.438-5.376-196.915-95.539-196.915-205.261v-33.792c0-56.269 46.080-101.99 102.81-101.99h553.011c56.678 0 102.81 45.773 102.81 101.99v33.792c-0.051 109.978-86.784 200.141-197.478 205.261zM838.298 140.39c0-30.31-24.883-54.938-55.398-54.938h-552.96c-30.515 0-55.398 24.627-55.398 54.938v33.792c0 80.589 60.621 147.558 140.032 157.184 50.227-59.699 119.398-93.645 191.59-93.645s141.414 33.997 191.693 93.696c79.616-9.523 140.39-76.442 140.39-157.235v-33.792zM506.214 303.104c111.206 0 201.626 109.568 201.626 244.173 0 134.656-90.419 244.224-201.626 244.224-111.155 0-201.626-109.568-201.626-244.224 0-134.605 90.47-244.173 201.626-244.173zM506.214 744.448c84.992 0 154.214-88.474 154.214-197.171 0-108.646-69.222-197.12-154.214-197.12s-154.163 88.422-154.163 197.12 69.171 197.171 154.163 197.171zM847.974 495.872l-12.442 0.614-7.475-9.779c-8.909-11.571-18.739-21.965-29.235-31.027-9.83-8.55-10.957-23.398-2.355-33.178s23.603-10.854 33.434-2.355c9.728 8.397 18.944 17.715 27.494 27.75 67.738-8.858 119.245-66.048 119.245-135.066v-29.594c0-13.005 10.598-23.552 23.706-23.552s23.654 10.445 23.654 23.45v29.645c0 98.048-77.312 178.483-176.026 183.091zM687.923 810.547c73.011 0 132.454-76.339 132.454-170.189 0-41.574-11.878-81.664-33.485-112.845-7.424-10.701-4.659-25.344 6.144-32.717 4.096-2.816 8.704-4.147 13.414-4.147 7.475 0 14.95 3.584 19.61 10.189 26.982 39.014 41.779 88.525 41.779 139.52 0 119.808-80.691 217.242-179.917 217.242-13.107 0-23.706-10.496-23.706-23.501s10.598-23.552 23.706-23.552zM194.15 420.045c9.882-8.55 24.883-7.475 33.434 2.355 8.55 9.779 7.526 24.627-2.355 33.178-10.496 9.062-20.326 19.507-29.184 31.027l-7.578 9.779-12.442-0.512c-98.714-4.608-176.026-85.043-176.026-183.142v-29.594c0-13.005 10.598-23.552 23.706-23.552s23.706 10.547 23.706 23.501v29.645c0 68.966 51.507 126.208 119.194 135.066 8.602-10.035 17.818-19.354 27.546-27.75zM217.6 490.65c4.608 0 9.318 1.331 13.466 4.147 10.803 7.373 13.517 22.016 6.144 32.717-21.658 31.181-33.536 71.27-33.536 112.845 0 93.85 59.443 170.189 132.454 170.189 13.107 0 23.706 10.547 23.706 23.552s-10.598 23.501-23.706 23.501c-99.277 0-179.917-97.434-179.917-217.242 0-50.995 14.848-100.506 41.83-139.52 4.608-6.605 12.032-10.189 19.558-10.189z" />
<glyph unicode="&#xe918;" glyph-name="videos" d="M398.659 114.661c127.353 0 230.616 102.885 230.616 229.915s-103.262 230.023-230.616 230.023c-127.245 0-230.508-103.047-230.508-230.023s103.262-229.915 230.508-229.915zM344.333 446.868c0 4.365 2.425 8.515 6.467 10.509 3.934 2.048 8.623 1.725 12.342-0.808l149.504-102.184c3.18-2.21 5.228-5.875 5.228-9.863s-2.048-7.653-5.228-9.863l-149.504-102.184c-2.048-1.401-4.365-2.102-6.845-2.102-1.832 0-3.773 0.485-5.443 1.401-4.042 2.048-6.467 6.090-6.467 10.563v204.531zM997.053 960.054h-743.101c-15.091 0-27.217-12.126-27.217-27.109v-82.782h-82.998c-14.929 0-27.163-12.126-27.163-27.055v-91.837h-89.465c-14.983 0-27.109-12.072-27.109-27.055v-741.214c0-14.929 12.126-27.055 27.163-27.055h743.101c14.929 0 27.163 12.126 27.163 27.055v91.837h89.465c14.821 0 27.055 12.126 27.055 27.055v82.836h83.052c14.929 0 27.055 12.072 27.055 27.001v741.214c0 14.983-12.126 27.109-27.001 27.109zM743.047-9.836h-688.775v686.996h688.775v-686.996zM859.567 108.948h-62.195v595.267c0 14.983-12.234 27.055-27.163 27.055h-599.363v64.674h688.721v-686.996zM969.674 218.84h-55.781v604.268c0 14.875-12.234 27.055-27.055 27.055h-605.831v55.727h688.667v-687.050z" />
<glyph unicode="&#xe919;" glyph-name="views" d="M1015.808 467.149l0.205 0.205c-173.005 175.309-345.549 236.902-496.896 236.646-302.95-1.331-509.645-236.083-512-237.722l0.41-0.358c-9.216-10.342-9.933-25.6-0.41-36.25 2.355-1.638 209.050-236.339 512-237.722h0.973c151.142 0 323.328 61.696 495.974 236.646 10.701 10.957 10.342 27.853-0.256 38.554zM519.117 248.166c-134.758-0.102-252.006 54.016-335.77 109.056-41.83 27.443-75.11 55.040-97.792 75.622-6.349 5.734-11.674 10.752-16.282 15.258 54.63 53.094 229.325 200.602 449.843 199.731 129.024-0.256 276.48-49.459 433.92-199.834-157.44-150.426-304.947-199.578-433.92-199.834zM335.616 451.277c0.205-105.472 84.582-191.283 189.491-191.283s189.286 85.862 189.491 191.283c-0.205 105.472-84.582 191.232-189.491 191.283-104.858 0-189.235-85.811-189.491-191.283z" />
<glyph unicode="&#xe91a;" glyph-name="shuffle" horiz-adv-x="979" d="M467.478 648.348c8.904 0 17.809 4.452 22.261 8.904 48.974 66.783 129.113 102.4 209.252 102.4h182.539l-97.948-97.948c-8.904-8.904-8.904-26.713 0-40.070 4.452-4.452 13.357-8.904 17.809-8.904s13.357 4.452 17.809 8.904l146.922 142.47c8.904 8.904 8.904 26.713 0 40.070l-146.922 142.47c-8.904 8.904-26.713 8.904-40.070 0-8.904-8.904-8.904-26.713 0-40.070l97.948-97.948h-182.539c-102.4 0-191.443-44.522-253.774-124.661-8.904-13.357-8.904-31.165 4.452-40.070 13.357 4.452 17.809 4.452 22.261 4.452zM325.009 238.748c-48.974-66.783-129.113-106.852-213.704-106.852h-84.591c-13.357 0-26.713-13.357-26.713-26.713s13.357-26.713 26.713-26.713h84.591c102.4 0 195.896 44.522 258.226 129.113 8.904 13.357 8.904 31.165-4.452 40.070s-31.165 4.452-40.070-8.904zM970.574 127.443l-146.922 142.47c-8.904 8.904-26.713 8.904-40.070 0s-8.904-26.713 0-40.070l97.948-97.948h-182.539c-146.922 0-267.13 120.209-267.13 262.678v111.304c0 0 0 4.452 0 4.452-8.904 173.635-146.922 307.2-320.557 307.2h-84.591c-13.357 0-26.713-13.357-26.713-31.165 0-13.357 13.357-26.713 26.713-26.713h84.591c146.922 0 267.13-120.209 267.13-262.678v-111.304c0 0 0-4.452 0-4.452 8.904-164.73 151.374-298.296 320.557-298.296h182.539l-97.948-97.948c-8.904-8.904-8.904-26.713 0-40.070 4.452-4.452 13.357-8.904 17.809-8.904 8.904 0 13.357 4.452 17.809 8.904l146.922 142.47c17.809 13.357 17.809 31.165 4.452 40.070z" />
<glyph unicode="&#xe91b;" glyph-name="repeat2" horiz-adv-x="1122" d="M24.381 413.867c4.876 0 4.876 0 9.752 0 14.629 0 24.381 9.752 29.257 24.381 48.762 151.162 209.676 277.943 360.838 277.943h419.352v-141.41c0 0 0 0 0 0s0 0 0-4.876c0 0 0 0 0-4.876s0 0 0-4.876 0 0 0-4.876c0 0 0 0 0-4.876s0 0 0-4.876 0 0 0 0 0 0 0 0 0 0 4.876-4.876v0c0 0 0 0 4.876 0v0c0 0 4.876 0 4.876 0v0c0 0 4.876 0 4.876 0 4.876 0 4.876 0 9.752 0v0c4.876 0 4.876 4.876 9.752 4.876l214.552 175.543c19.505 9.752 24.381 19.505 24.381 29.257s-4.876 19.505-14.629 24.381l-214.552 175.543c-14.629 14.629-34.133 9.752-43.886 0-4.876-4.876-9.752-14.629-4.876-24.381v0-141.41h-419.352c-180.419 0-365.714-151.162-419.352-331.581-4.876-19.505 4.876-34.133 19.505-39.010zM906.971 750.324v112.152l131.657-107.276-131.657-107.276v102.4zM1097.143 482.133c-19.505 4.876-34.133-4.876-39.010-24.381-43.886-156.038-204.8-282.819-355.962-282.819h-419.352v141.41c0 0 0 0 0 0s0 0 0 4.876c0 0 0 0 0 4.876 0 0 0 0 0 4.876 0 0 0 0 0 4.876 0 0 0 0 0 4.876 0 0 0 0 0 4.876 0 0 0 0 0 0s0 0 0 0 0 0 0 0v0c0 0 0 0-4.876 0 0 0 0 0-4.876 0 0 0 0 0-4.876 0 0 0 0 0-4.876 0 0 0 0 0-4.876 0s0 0-4.876 0v0c0 0 0 0 0 0s0 0-4.876 0c0 0 0 0-4.876 0 0 0 0 0-4.876 0 0 0 0 0-4.876 0 0 0 0 0-4.876 0 0 0 0 0-4.876 0 0 0 0 0 0 0l-214.552-175.543c-4.876-4.876-9.752-14.629-9.752-24.381s4.876-19.505 14.629-24.381l214.552-175.543c4.876-9.752 9.752-9.752 19.505-9.752s19.505 4.876 24.381 14.629c4.876 4.876 9.752 14.629 4.876 24.381v0 141.41h419.352c180.419 0 365.714 151.162 419.352 331.581 9.752 14.629 0 29.257-19.505 34.133zM219.429 145.676v-107.276l-131.657 107.276 131.657 107.276v-107.276z" />
<glyph unicode="&#xe91c;" glyph-name="prev" horiz-adv-x="1069" d="M40.070 448l1006.191-512v1024l-1006.191-512zM983.93 33.948l-819.2 414.052 819.2 418.504v-832.557zM0 960h75.687v-1024h-75.687v1024z" />
<glyph unicode="&#xe91d;" glyph-name="plus2" d="M512 960c-280.253 0-512-231.747-512-512s231.747-512 512-512c280.253 0 512 231.747 512 512s-231.747 512-512 512zM512 0.674c-247.916 0-447.326 199.411-447.326 447.326s199.411 447.326 447.326 447.326c247.916 0 447.326-199.411 447.326-447.326s-199.411-447.326-447.326-447.326zM538.947 474.947v215.579h-53.895v-215.579h-215.579v-53.895h215.579v-215.579h53.895v215.579h215.579v53.895z" />
<glyph unicode="&#xe91e;" glyph-name="play222" horiz-adv-x="983" d="M0.369 960.41v-1024.778l982.098 512.369-982.098 512.41zM61.768 864.932l797-417.382-797-415.457v832.84z" />
<glyph unicode="&#xe91f;" glyph-name="pause22" horiz-adv-x="778" d="M712.704 960v-1024h65.536v1024h-65.536zM0-64h65.536v1024h-65.536v-1024z" />
<glyph unicode="&#xe920;" glyph-name="next" d="M0 960v-1024l988.383 512-988.383 512zM62.33 866.504l801.391-418.504-801.391-414.052v832.557zM948.313 960h75.687v-1024h-75.687v1024z" />
<glyph unicode="&#xe921;" glyph-name="audio-volume3" horiz-adv-x="1291" d="M966.122 755.2l-8.904 13.357-8.904-13.357c-8.904-8.904-13.357-22.261-22.261-31.165l-4.452-4.452 4.452-8.904c57.878-80.139 84.591-178.087 84.591-271.583 0-111.304-35.617-218.157-106.852-302.748l-4.452-4.452 13.357-13.357c4.452-4.452 8.904-8.904 8.904-8.904 4.452-4.452 4.452-4.452 8.904-8.904l8.904-8.904 8.904 8.904c80.139 97.948 124.661 218.157 124.661 342.817-4.452 111.304-40.070 218.157-106.852 311.652zM0 577.113v-258.226h195.896l316.104-382.887v1024l-316.104-382.887h-195.896zM449.67 768.557v-667.826l-222.609 284.939h-164.73v129.113h160.278l227.061 253.774zM810.296 621.635l-8.904-4.452c-8.904-4.452-22.261-8.904-31.165-13.357l-13.357-8.904 8.904-13.357c26.713-44.522 40.070-93.496 40.070-146.922 0-48.974-13.357-97.948-35.617-138.017l-4.452-8.904 8.904-8.904c0 0 4.452-4.452 4.452-4.452 4.452-4.452 4.452-8.904 8.904-13.357v0c4.452-4.452 4.452-4.452 8.904-8.904l4.452-4.452 8.904 13.357c35.617 53.426 53.426 115.757 53.426 178.087 0 57.878-17.809 120.209-48.974 169.183l-4.452 13.357zM1095.235 951.096l-8.904 8.904-8.904-13.357c-8.904-8.904-13.357-17.809-22.261-31.165l-4.452-8.904 4.452-4.452c115.757-129.113 178.087-293.843 178.087-463.026s-62.33-329.461-173.635-458.574l-8.904-8.904 8.904-8.904c4.452-4.452 13.357-8.904 17.809-13.357l17.809-13.357 8.904 8.904c120.209 138.017 186.991 316.104 186.991 498.643 0 186.991-71.235 365.078-195.896 507.548z" />
<glyph unicode="&#xe922;" glyph-name="audio-volume2" horiz-adv-x="1069" d="M810.296 621.635l-8.904-4.452c-8.904-4.452-22.261-8.904-31.165-13.357l-13.357-8.904 8.904-13.357c26.713-44.522 40.070-93.496 40.070-146.922 0-48.974-13.357-97.948-35.617-138.017l-4.452-8.904 8.904-8.904c0 0 4.452-4.452 4.452-4.452 4.452-4.452 4.452-8.904 8.904-13.357v0c4.452-4.452 4.452-4.452 8.904-8.904l4.452-4.452 8.904 13.357c35.617 53.426 53.426 115.757 53.426 178.087 0 57.878-17.809 120.209-48.974 169.183l-4.452 13.357zM0 577.113v-258.226h195.896l316.104-382.887v1024l-316.104-382.887h-195.896zM449.67 768.557v-672.278l-222.609 284.939h-164.73v129.113h160.278l227.061 258.226zM966.122 755.2l-8.904 13.357-8.904-13.357c-8.904-8.904-13.357-22.261-22.261-31.165l-4.452-4.452 4.452-8.904c57.878-80.139 84.591-178.087 84.591-271.583 0-111.304-35.617-218.157-106.852-302.748l-4.452-4.452 13.357-13.357c4.452-4.452 8.904-8.904 8.904-8.904 4.452-4.452 4.452-4.452 8.904-8.904l8.904-8.904 8.904 8.904c80.139 97.948 124.661 218.157 124.661 342.817-4.452 111.304-40.070 218.157-106.852 311.652z" />
<glyph unicode="&#xe923;" glyph-name="audio-volume1" d="M0 577.113v-258.226h195.896l316.104-382.887v1024l-316.104-382.887h-195.896zM449.67 768.557v-672.278l-222.609 284.939h-164.73v129.113h160.278l227.061 258.226zM814.748 612.73l-4.452 8.904-8.904-4.452c-8.904-4.452-22.261-8.904-31.165-13.357l-13.357-8.904 8.904-13.357c26.713-44.522 40.070-93.496 40.070-146.922 0-48.974-13.357-97.948-35.617-138.017l-4.452-8.904 8.904-8.904c0 0 4.452-4.452 4.452-4.452 4.452-4.452 4.452-8.904 8.904-13.357v0c4.452-4.452 4.452-4.452 8.904-8.904l4.452-4.452 8.904 13.357c35.617 53.426 53.426 115.757 53.426 178.087s-17.809 120.209-48.974 173.635z" />
<glyph unicode="&#xe924;" glyph-name="audio" horiz-adv-x="780" d="M752.494 959.902l-507.611-103.473c-10.923-2.194-18.773-11.849-18.773-23.064v-627.029c-54.174 26.136-122.344 3.267-166.668-32.037-43.496-34.621-82.066-102.107-42.91-154.039 35.742-47.494 106.837-40.96 154.917-19.115 53.638 24.381 101.669 74.167 101.669 136.094v676.815l460.556 93.915v-598.162c-54.077 26.136-122.295 3.316-166.668-31.988-43.447-34.67-82.018-102.107-42.91-154.039 35.742-47.494 106.789-40.96 154.917-19.115 53.638 24.381 101.717 74.167 101.717 136.094v696.125c-0.049 14.482-13.897 26.185-28.233 23.016z" />
<glyph unicode="&#xe925;" glyph-name="photo" horiz-adv-x="1638" d="M1474.56 618.598c90.419 0 163.84 76.493 163.84 170.701s-73.421 170.598-163.84 170.598c-90.522 0-163.942-76.39-163.942-170.598s73.523-170.701 163.942-170.701zM851.763 209.101l-360.243 750.797-491.52-1024h1638.195l-491.52 682.701-294.912-409.498z" />
<glyph unicode="&#xe926;" glyph-name="video" horiz-adv-x="832" d="M0.128 960.192v-1024.384l832.256 508.48z" />
</font>
</defs>
</svg>
